Wajah.Tum.Ho.2016.WEBHD.MPEG.AC3.Esub.DDR

  • Category Movies
  • Type HD
  • Language Hindi
  • Total size 3.1 GB
  • Uploaded By SaM
  • Downloads 966
  • Last checked 3 days ago
  • Date uploaded 1 week ago
  • Seeders 297
  • Leechers 207

Infohash : 58BD21A7938CB1D65F737BCB6031111816D924D9




~ wajah.tum.ho ~

** webhd / h.263 / ac3 5.1 / esubs **

note: cooking 1080p may be i will release 20mmro those who want HD they can wait and yes audio is original 5.1 included with english subs





Code:


General
Complete name : wajah.tum.ho.2016.webhd.mpeg.ac3.esub.ddr.mkv
Format : Matroska
Format version : Version 4 / Version 2
File size : 3.11 GiB
Duration : 2 h 10 min
Overall bit rate : 3 405 kb/s
Encoded date : UTC 2017-01-10 10:32:04

Video
ID : 1
Format : MPEG-4 Visual
Format profile : [email protected]
Format settings, BVOP : No
Format settings, QPel : No
Format settings, GMC : No warppoints
Format settings, Matrix : Default (H.263)
Codec ID : V_MPEG4/ISO/ASP
Codec ID/Info : Advanced Simple Profile
Duration : 2 h 10 min
Bit rate : 3 019 kb/s
Width : 1 088 pixels
Height : 464 pixels
Display aspect ratio : 2.35:1
Frame rate mode : Constant
Frame rate : 25.000 FPS
Color space : YUV
Chroma subsampling : 4:2:0
Bit depth : 8 bits
Scan type : Progressive
Compression mode : Lossy
Bits/(Pixel*Frame) : 0.239
Stream size : 2.76 GiB (89%)
Title : DDR
Writing library : Lavc55.52.102
Default : Yes
Forced : No

Audio
ID : 2
Format : AC-3
Format/Info : Audio Coding 3
Mode extension : CM (complete main)
Format settings, Endianness : Big
Codec ID : A_AC3
Duration : 2 h 10 min
Bit rate mode : Constant
Bit rate : 384 kb/s
Channel(s) : 6 channels
Channel positions : Front: L C R, Side: L R, LFE
Sampling rate : 48.0 kHz
Frame rate : 31.250 FPS (1536 spf)
Bit depth : 16 bits
Compression mode : Lossy
Delay relative to video : -21 ms
Stream size : 359 MiB (11%)
Title : DDR
Language : Hindi
Default : Yes
Forced : No

Text
ID : 3
Format : UTF-8
Codec ID : S_TEXT/UTF8
Codec ID/Info : UTF-8 Plain Text
Duration : 2 h 7 min
Bit rate : 49 b/s
Count of elements : 1470
Stream size : 46.3 KiB (0%)
Title : DDR
Language : English
Default : Yes
Forced : No












A DDR Exclusive Release...


Files:

wajah.tum.ho.2016.webhd.mpeg.ac3.esub.ddr
  • sample.mkv (28.9 MB)
  • wajah.tum.ho.2016.webhd.mpeg.ac3.esub.ddr.mkv (3.1 GB)

Comments

Code:

  • udp://9.rarbg.to:2710/announce
  • udp://9.rarbg.me:2710/announce
  • udp://tracker.coppersurfer.tk:6969/announce
  • udp://tracker.zer0day.to:1337/announce
  • udp://tracker.ilibr.org:6969/announce
  • udp://tracker.leechers-paradise.org:6969/announce
  • udp://torrent.gresille.org:80/announce
  • udp://tracker.ilibr.org:80/announce
  • udp://p4p.arenabg.com:1337/announce
  • udp://p4p.arenabg.ch:1337/announce
  • udp://tracker.leechers-paradise.org:6969/announce
  • udp://tracker.coppersurfer.tk:6969/announce
  • udp://tracker.internetwarriors.net:1337/announce
  • udp://tracker.opentrackr.org:1337/announce
  • udp://eddie4.nl:6969/announce